HD-AREA wünscht Euch eine besinnliche Weihnachtszeit ;)

DNS SERVER AENDERNum der staatlichen Zensur zu umgehen. Sollten wir von eurem Provider geseprrt werden, nutzt den TOR BROWSER oder ändert euren DNS SERVER.

Filmwünsche können bei uns im Forum abgegeben werden

Wir Speichern Nicht




 
 
 
Top Releases
Catch.Me.Tag.2018.MULTI.COMP...
Earthquake.Die.Welt.Am.Abgru...
Earthquake.Die.Welt.Am.Abgru...
Earthquake.Die.Welt.Am.Abgru...
Earthquake.Die.Welt.Am.Abgru...
Paradox.Kill.Zone.Bangkok.20...
I.Tonya.2017.German.AC3.1080...
Deine.Juliet.2018.German.DL....
Ideal.Home.2018.German.DL.10...
Ideal.Home.Ein.Vater.kommt.s...

Cinedubs
Venom.German.DL.AC3.Dubbed.1...
Venom.2018.German.AC3D.5.1.D...
Venom.2018.German.AC3D.5.1.D...
Das.krumme.Haus.2017.GERMAN....
Das.krumme.Haus.2017.GERMAN....
I.Still.See.You.Sie.lassen.d...
I.Still.See.You.Sie.lassen.d...
Braven.2018.German.AC3D.DL.1...
Braven.2018.German.AC3D.DL.7...
Smallfoot.Ein.eisigartiges.A...

Neuerscheinungen 2017-18
Annie.1982.COMPLETE.BLURAY.i...
Reprisal.Nimm.Dir.was.Dir.ge...
Catch.Me.2018.German.720p.Bl...
Catch.Me.2018.German.DL.1080...
Ghost.Town.GERMAN.1988.DL.10...
Donner.ueber.dem.Indischen.O...
Bullets.over.Broadway.1994.M...
Ghost.Town.1988.DUAL.COMPLET...
Ein.Lied.in.Gottes.Ohr.2017....
Ein.Lied.in.Gottes.Ohr.Germa...

XXX
Black.Street.Hookers.105.XXX...
Black.Street.Hookers.105.XXX...
Cosmid.18.12.03.Abigail.Andr...
ConorCoxxx.18.06.08.Scarlett...
CrowdBondage.18.12.03.Susy.G...
DesperateAmateurs.18.12.02.B...
ClaudiaMarie.18.11.25.Mr.Mar...
DateSlam.18.12.03.Kelly.Horn...
DickOnTrip.18.12.03.Black.Wh...
ConorCoxxx.18.07.13.Nadia.Wh...
CzechCasting.18.12.01.Nikol....
CreampieInAsia.18.11.30.Pon....
ConorCoxxx.18.07.20.Marica.H...
Cosmid.18.12.01.Bella.Bruni....
ConorCoxxx.18.11.23.Ashton.B...
ConorCoxxx.18.06.29.Erica.La...
ATKGirlfriends.18.12.01.Zoe....
ClubSeventeen.18.12.01.Aurel...
ConorCoxxx.18.07.06.Noelle.E...
CherryPimps.18.12.03.Ana.Fox...

3D
The.Art.of.Flight.3D.2011.Ge...
The.End.Of.The.World.3D.2010...
The.First.Avenger.Civil.War....
Die.Unglaublichen.2.2018.3D....
Skyscraper.3D.2018.MULTi.COM...
Ant-Man.And.The.Wasp.3D.2018...
Ant.Man.and.the.Wasp.3D.2018...
Die.Unglaublichen.2.3D.2018....
Die.Unglaublichen.2.2018.3D....
Die.Unglaublichen.2.2018.3D....
Sharknado.6.The.Last.One.3D....
Deep.Kleine.Helden.der.Tiefs...
Deep.3D.2017.MULTI.COMPLETE....
Detective.Dee.und.die.Legend...
Detective.Dee.und.die.Legend...

Old_Stuff
Akte.X.S04.German.DTS.DL.108...
Akte.X.S03.German.DTS.DL.108...
Dunkirk.1958.COMPLETE.BLURAY...
Das.Wunder.von.Manhattan.199...
The.Amazing.Spiderman.2.Rise...
Rise.of.the.Predator.2014.Ge...
Detective.Dee.und.das.Geheim...
Detective.Dee.Und.Der.Fluch....
Ghost.Rider.Spirit.of.Vengea...
Species.IV.Das.Erwachen.2007...
Species.IV.Das.Erwachen.2007...
Hotel.Transsilvanien.2012.Ge...
The.Dead.2010.German.DL.1080...
The.Dead.2.India.2013.German...
Britney.Spears.Live.The.Femm...

Filme
Justice.League.Dark.2017.Ger...
Air.Force.One.1997.UHD2BD.DL...
Rare.Exports.2010.German.AC3...
Logan.Lucky.2017.German.DL.1...
How.to.Be.Single.2016.German...
Housesitter.Luegen.haben.sch...
Die.Stunde.des.Headhunter.19...
Swedish.Dicks.S02.GERMAN.720...
Wildlife.Vol.1.Striker.Anato...
Criminal.Minds.S13.COMPLETE....
Snatch.S02.German.DL.DUBBED....
Snatch.S02.German.DL.DUBBED....
Killjoys.S04.German.DD51.Dub...
Killjoys.S04.German.DD51.Dub...
Robin.Hood.Ein.Leben.fuer.Ri...
Ghost.Town.GERMAN.1988.DL.72...
Donner.ueber.dem.Indischen.O...
Dogs.Of.Berlin.S01.GERMAN.DL...
Dogs.Of.Berlin.S01.German.72...
Get.Shorty.S02.German.DD51.S...
Get.Shorty.S02.German.DD51.S...
Girls.Club.2.Vorsicht.bissig...
Der.Gott.des.Gemetzels.2011....
Die.Conners.S01.German.DD51....

 
 
How.to.Be.Single.2016.German.DL.1080p.BluRay.x264-BluRHD

Jahr: 2016
Genre: Komödie
Sprache: Deutsch DTS | Englisch DTS
Laufzeit: 1h 49mn
Bitrate: 9 835 Kbps
Format: MKV
Größe: 7.54 GiB
Release:

Beschreibung:

Wie verhält man sich als Single in der Stadt, die niemals schläft? Das muss Alice (Dakota Johnson) erst lernen, als sie sich von ihrem Freund trennt und einen neuen Job in New York City antritt. Unter die Arme greifen ihr bei ihren ersten Gehversuchen im Single-Großstadtdschungel ihre Schwester und Mitbewohnerin Meg (Leslie Mann) und ihre feierwütige Kollegin Robin (Rebel Wilson). Während Alice bald mit dem alleinerziehenden David (Damon Wayans Jr.) anbandelt, plagen Meg ganz andere Single-Sorgen: Als Geburtshelferin hat sie über 3.000 Babys auf die Welt gebracht und nun wünscht sie sich ein eigenes Kind, zu dem ihr jedoch der passende Vater fehlt. Zu Alices neuem Freundeskreis gehört auch Lucy (Alison Brie), deren Liebesleben ebenfalls Kopf steht. Zwischen Dating-Orgien, anzüglichen SMS, gescheiterten Annäherungsversuchen und flüchtigen Begegnungen versucht jede der Frauen für sich herauszufinden, was Liebe wirklich bedeutet – und wie man sie findet.



Complete name                            : bhd-htbs-1080p.mkv
Format                                   : Matroska
Format version                           : Version 2
File size                                : 7.54 GiB
Duration                                 : 1h 49mn
Overall bit rate                         : 9 835 Kbps
Encoded date                             : UTC 2017-03-07 17:19:50
Writing application                      : mkvmerge v4.5.0 ('Speed of Light') gebaut am Feb  1 2011 02:10:32
Writing library                          : libebml v1.2.0 + libmatroska v1.1.0

Video
ID                                       : 1
Format                                   : AVC
Format/Info                              : Advanced Video Codec
Format profile                           : High@L4.1
Format settings, CABAC                   : Yes
Format settings, ReFrames                : 4 frames
Codec ID                                 : V_MPEG4/ISO/AVC
Duration                                 : 1h 49mn
Bit rate                                 : 6 798 Kbps
Width                                    : 1 920 pixels
Height                                   : 800 pixels
Display aspect ratio                     : 2.40:1
Frame rate mode                          : Constant
Frame rate                               : 23.976 fps
Color space                              : YUV
Chroma subsampling                       : 4:2:0
Bit depth                                : 8 bits
Scan type                                : Progressive
Bits/(Pixel*Frame)                       : 0.185
Stream size                              : 5.08 GiB (67%)
Writing library                          : x264 core 148 r2721 72d53ab
Encoding settings                        : cabac=1 / ref=5 / deblock=1:-1:-1 / analyse=0x3:0x133 / me=umh / subme=8 / psy=1 / psy_rd=1.00:0.15 / mixed_ref=1 / me_range=16 / chroma_me=1 / trellis=1 / 8x8dct=1 / cqm=0 / deadzone=21,11 / fast_pskip=1 / chroma_qp_offset=-3 / threads=6 / lookahead_threads=1 / sliced_threads=0 / nr=0 / decimate=1 / interlaced=0 / bluray_compat=0 / constrained_intra=0 / bframes=3 / b_pyramid=1 / b_adapt=2 / b_bias=0 / direct=1 / weightb=1 / open_gop=0 / weightp=1 / keyint=240 / keyint_min=23 / scenecut=40 / intra_refresh=0 / rc_lookahead=30 / rc=2pass / mbtree=1 / bitrate=6798 / ratetol=1.0 / qcomp=0.60 / qpmin=0 / qpmax=69 / qpstep=4 / cplxblur=20.0 / qblur=0.5 / ip_ratio=1.40 / aq=1:1.00
Language                                 : English
Default                                  : Yes
Forced                                   : No

Audio #1
ID                                       : 2
Format                                   : DTS
Format/Info                              : Digital Theater Systems
Mode                                     : 16
Format settings, Endianness              : Big
Codec ID                                 : A_DTS
Duration                                 : 1h 49mn
Bit rate mode                            : Constant
Bit rate                                 : 1 509 Kbps
Channel(s)                               : 6 channels
Channel positions                        : Front: L C R, Side: L R, LFE
Sampling rate                            : 48.0 KHz
Bit depth                                : 16 bits
Compression mode                         : Lossy
Delay relative to video                  : 11ms
Stream size                              : 1.16 GiB (15%)
Title                                    : German
Language                                 : German
Default                                  : Yes
Forced                                   : No

Audio #2
ID                                       : 3
Format                                   : DTS
Format/Info                              : Digital Theater Systems
Mode                                     : 16
Format settings, Endianness              : Big
Codec ID                                 : A_DTS
Duration                                 : 1h 49mn
Bit rate mode                            : Constant
Bit rate                                 : 1 509 Kbps
Channel(s)                               : 6 channels
Channel positions                        : Front: L C R, Side: L R, LFE
Sampling rate                            : 48.0 KHz
Bit depth                                : 24 bits
Compression mode                         : Lossy
Delay relative to video                  : 11ms
Stream size                              : 1.16 GiB (15%)
Title                                    : English
Language                                 : English
Default                                  : No
Forced                                   : No

Text #1
ID                                       : 4
Format                                   : VobSub
Muxing mode                              : zlib
Codec ID                                 : S_VOBSUB
Codec ID/Info                            : The same subtitle format used on DVDs
Title                                    : German forced
Language                                 : German
Default                                  : Yes
Forced                                   : Yes

Text #2
ID                                       : 5
Format                                   : VobSub
Muxing mode                              : zlib
Codec ID                                 : S_VOBSUB
Codec ID/Info                            : The same subtitle format used on DVDs
Title                                    : German complete
Language                                 : German
Default                                  : No
Forced                                   : No

Text #3
ID                                       : 6
Format                                   : VobSub
Muxing mode                              : zlib
Codec ID                                 : S_VOBSUB
Codec ID/Info                            : The same subtitle format used on DVDs
Title                                    : English complete
Language                                 : English
Default                                  : No
Forced                                   : No


Download:
Share Online Share OnlineShare OnlineShare Online
 

Kommentare