Filecrypt zeigt vereinzelt Files als "n/a". Die Downloads sind trotzdem komplett.

DNS SERVER AENDERNum der staatlichen Zensur zu umgehen. Sollten wir von eurem Provider geseprrt werden, nutzt den TOR BROWSER oder ändert euren DNS SERVER.

Filmwünsche können bei uns im Forum abgegeben werden

Wir Speichern Nicht




 
 
 
Top Releases
Ideal.Home.2018.German.DL.10...
Ideal.Home.Ein.Vater.kommt.s...
Deine.Juliet.2018.German.DTS...
Deine.Juliet.2018.MULTi.COMP...
Ideal.Home.Ein.Vater.kommt.s...
Ideal.Home.Ein.Vater.kommt.s...
Cam.2018.German.AC3.DL.1080p...
Die.Frau.die.vorausgeht.Germ...
Die.Frau.die.vorausgeht.Germ...
Deine.Juliet.2018.German.DL....

Cinedubs
I.Still.See.You.Sie.lassen.d...
I.Still.See.You.Sie.lassen.d...
Braven.2018.German.AC3D.DL.1...
Braven.2018.German.AC3D.DL.7...
Smallfoot.Ein.eisigartiges.A...
Smallfoot.Ein.eisigartiges.A...
Halloween.German.DL.AC3.Dubb...
Halloween.German.DL.AC3.Dubb...
Freaky.Friday.German.DL.AC3....
Freaky.Friday.German.DL.AC3....

Neuerscheinungen 2017-18
Boar.2017.German.DL.1080p.Bl...
Robin.Hood.Ein.Leben.fuer.Ri...
Robert.3.The.Toymaker.2017.C...
Robert.3.The.Toymaker.2017.G...
Robert.3.The.Toymaker.2017.G...
Scorpion.King.5.Das.Buch.der...
The.Scorpion.King.5.Das.Buch...
Scorpion.King.5.Das.Buch.der...
Event.Horizon.REMASTERED.199...
Sicario.2.Soldado.2018.Germa...

XXX
SugarCookie.18.08.10.Marica....
WankItNow.17.12.01.Scarlett....
ProducersFun.17.11.26.Sierra...
WeFuckBlackGirls.18.11.26.Ki...
WankItNow.17.12.01.Eva.Watch...
Vixen.18.11.25.Danni.Rivers....
SexArt.18.11.25.Stefany.Moon...
Stunning18.18.11.26.Cira.Ner...
SugarCookie.18.08.20.Kira.Qu...
SpyFam.18.11.26.Alex.Blake.X...
ShesNew.18.11.25.River.Fox.A...
ProducersFun.17.11.17.Zaya.C...
WankItNow.17.12.02.Sophia.Sm...
ScamAngels.18.11.25.Bailey.B...
Twistys.18.11.26.Eliza.Ibarr...
Spizoo.18.11.26.Daisy.Stone....
RKPrime.18.11.26.Karmen.Karm...
SweetheartVideo.18.11.26.Sov...
Submissived.18.11.26.Jezebet...
TheLifeErotic.18.11.25.Liz.R...

3D
The.Art.of.Flight.3D.2011.Ge...
The.End.Of.The.World.3D.2010...
The.First.Avenger.Civil.War....
Die.Unglaublichen.2.2018.3D....
Skyscraper.3D.2018.MULTi.COM...
Ant-Man.And.The.Wasp.3D.2018...
Ant.Man.and.the.Wasp.3D.2018...
Die.Unglaublichen.2.3D.2018....
Die.Unglaublichen.2.2018.3D....
Die.Unglaublichen.2.2018.3D....
Sharknado.6.The.Last.One.3D....
Deep.Kleine.Helden.der.Tiefs...
Deep.3D.2017.MULTI.COMPLETE....
Detective.Dee.und.die.Legend...
Detective.Dee.und.die.Legend...

Old_Stuff
Akte.X.S04.German.DTS.DL.108...
Akte.X.S03.German.DTS.DL.108...
Dunkirk.1958.COMPLETE.BLURAY...
Das.Wunder.von.Manhattan.199...
The.Amazing.Spiderman.2.Rise...
Rise.of.the.Predator.2014.Ge...
Detective.Dee.und.das.Geheim...
Detective.Dee.Und.Der.Fluch....
Ghost.Rider.Spirit.of.Vengea...
Species.IV.Das.Erwachen.2007...
Species.IV.Das.Erwachen.2007...
Hotel.Transsilvanien.2012.Ge...
The.Dead.2010.German.DL.1080...
The.Dead.2.India.2013.German...
Britney.Spears.Live.The.Femm...

Filme
Geheimnisse.der.Steppe.1955....
Die.Abenteuer.des.Tom.Sawyer...
Arrow.S06.GERMAN.DL.1080p.HD...
Arrow.S06.GERMAN.DL.720p.HDT...
Kidding.S01.GERMAN.DL.1080p....
Kidding.S01.GERMAN.DL.720p.H...
Berlin.Station.S03.GERMAN.DL...
Berlin.Station.S03.GERMAN.72...
Wrecked.S03.GERMAN.DUBBED.72...
Versailles.S01-S03.COMPLETE....
Der.sechs.Millionen.Dollar.M...
Ideal.Home.2018.German.720p....
Ideal.Home.2018.German.DL.10...
Hotel.Artemis.2018.German.DL...
Hotel.Artemis.2018.German.DL...
Last.Knights.Die.Ritter.des....
Under.Supicion.Moerderisches...
Die.Liebe.in.mir.2007.German...
Kuess.den.Frosch.2009.German...
Versailles.S01-S03.COMPLETE....
Marvels.Inhumans.S01.German....
Marvels.Inhumans.S01.German....
Black.Lightning.S02.GERMAN.D...
Black.Lightning.S02.GERMAN.D...

 
 
Hannibal.S03.COMPLETE.German.DL.720p.BluRay.x264-iNTENTiON

Jahr: 2015
Genre: Krimi | Drama | Horror
Sprache: Deutsch DTS | Englisch AC3
Laufzeit: 43min je Folge
Bitrate: 1700 Kbps
Format: MKV
Größe: 1,2 GB je Folge
Release:

Beschreibung:

Die US-Horror-Serie „Hannibal“ basierend auf dem Roman „Roter Drache“ von Thomas Harris dreht sich um die Beziehung des FBI-Agenten Will Graham und Dr. Hannibal Lecter, der wohl mit Abstand berühmteste Kannibale der Welt. Darin löst Lecter zusammen mit dem einfühlsamen FBI-Profiler Will Graham (Hugh Dancy) Kriminalfälle. Anders als sonst üblich können die Zuschauer also Lecter in „freier Wildbahn“ erleben und das bevor die Welt weiß, was er verbirgt. Denn eine entscheidende Wendung ist, dass er Seite an Seite mit dem Mann zusammenarbeitet, der ihn einmal verhaften soll. Die Serie startet bevor Lecter seine Haft absitzt. Lecter wird nicht unbedingt als Bösewicht erkennbar sein (Fuller beruft sich auf Alfred Hitchcocks Suspense-Prinzip)



General
Complete name                            : Hannibal.S03E01.German.DL.720p.BluRay.x264-iNTENTiON\hannibal.s03e01.german.dl.720p.bluray.x264-intention.mkv
Format                                   : Matroska
Format version                           : Version 2
File size                                : 1.18 GiB
Duration                                 : 42mn 58s
Overall bit rate                         : 3 933 Kbps
Writing application                      : mkvmerge v6.6.0 ('The Edge Of The In Between') built on Dec 1 2013 17:55:00
Writing library                          : libebml v1.3.0 + libmatroska v1.4.1

Video
ID                                       : 1
Format                                   : AVC
Format/Info                              : Advanced Video Codec
Format profile                           : High@L4.1
Format settings, CABAC                   : Yes
Format settings, ReFrames                : 5 frames
Codec ID                                 : V_MPEG4/ISO/AVC
Duration                                 : 42mn 58s
Bit rate                                 : 1 706 Kbps
Width                                    : 1 280 pixels
Height                                   : 720 pixels
Display aspect ratio                     : 16:9
Frame rate mode                          : Constant
Frame rate                               : 24.000 fps
Color space                              : YUV
Chroma subsampling                       : 4:2:0
Bit depth                                : 8 bits
Scan type                                : Progressive
Bits/(Pixel*Frame)                       : 0.077
Stream size                              : 524 MiB (43%)
Writing library                          : x264 core 148 r2638 7599210
Encoding settings                        : cabac=1 / ref=5 / deblock=1:-3:-3 / analyse=0x3:0x133 / me=umh / subme=8 / psy=1 / psy_rd=1.00:0.15 / mixed_ref=1 / me_range=16 / chroma_me=1 / trellis=1 / 8x8dct=1 / cqm=0 / deadzone=21,11 / fast_pskip=0 / chroma_qp_offset=-3 / threads=12 / lookahead_threads=2 / sliced_threads=0 / nr=0 / decimate=1 / interlaced=0 / bluray_compat=0 / constrained_intra=0 / bframes=3 / b_pyramid=2 / b_adapt=2 / b_bias=0 / direct=3 / weightb=1 / open_gop=0 / weightp=2 / keyint=240 / keyint_min=24 / scenecut=40 / intra_refresh=0 / rc_lookahead=50 / rc=crf / mbtree=1 / crf=20.0 / qcomp=0.60 / qpmin=0 / qpmax=69 / qpstep=4 / ip_ratio=1.40 / aq=1:1.00
Language                                 : English
Default                                  : Yes
Forced                                   : No

Audio #1
ID                                       : 2
Format                                   : DTS
Format/Info                              : Digital Theater Systems
Mode                                     : 16
Format settings, Endianness              : Big
Codec ID                                 : A_DTS
Duration                                 : 42mn 58s
Bit rate mode                            : Constant
Bit rate                                 : 1 509 Kbps
Channel(s)                               : 6 channels
Channel positions                        : Front: L C R, Side: L R, LFE
Sampling rate                            : 48.0 KHz
Bit depth                                : 24 bits
Compression mode                         : Lossy
Stream size                              : 464 MiB (38%)
Language                                 : German
Default                                  : Yes
Forced                                   : No

Audio #2
ID                                       : 3
Format                                   : AC-3
Format/Info                              : Audio Coding 3
Mode extension                           : CM (complete main)
Format settings, Endianness              : Big
Codec ID                                 : A_AC3
Duration                                 : 42mn 58s
Bit rate mode                            : Constant
Bit rate                                 : 640 Kbps
Channel(s)                               : 6 channels
Channel positions                        : Front: L C R, Side: L R, LFE
Sampling rate                            : 48.0 KHz
Bit depth                                : 16 bits
Compression mode                         : Lossy
Stream size                              : 197 MiB (16%)
Language                                 : English
Default                                  : Yes
Forced                                   : No

Text
ID                                       : 4
Format                                   : UTF-8
Codec ID                                 : S_TEXT/UTF8
Codec ID/Info                            : UTF-8 Plain Text
Title                                    : Forced
Language                                 : German
Default                                  : Yes
Forced                                   : No

Menu
00:00:00.000                             : en:00:00:00.000
00:00:33.833                             : en:00:00:33.833
00:06:39.083                             : en:00:06:39.083
00:15:17.792                             : en:00:15:17.792
00:29:03.958                             : en:00:29:03.958



Download:
Share-Online.biz Share-Online.bizShare-Online.bizShare-Online.biz
 

Kommentare