Filecrypt zeigt vereinzelt Files als "n/a". Die Downloads sind trotzdem komplett.

DNS SERVER AENDERNum der staatlichen Zensur zu umgehen. Sollten wir von eurem Provider geseprrt werden, nutzt den TOR BROWSER oder ändert euren DNS SERVER.

Filmwünsche können bei uns im Forum abgegeben werden

Wir Speichern Nicht




 
 
 
Top Releases
Burnt.Im.Rausch.der.Sterne.2...
Sicario.2.Soldado.2018.Germa...
Hotel.Artemis.German.DL.720p...
Hotel.Artemis.German.DL.1080...
Dead.in.a.Week.Oder.Geld.zur...
Dead.in.a.Week.Oder.Geld.zur...
Die.Welt.gehoert.dir.2018.Ge...
Die.Welt.gehoert.dir.2018.Ge...
Paradox.Kill.Zone.Bangkok.20...
Paradox.Kill.Zone.Bangkok.20...

Cinedubs
I.Still.See.You.Sie.lassen.d...
I.Still.See.You.Sie.lassen.d...
Braven.2018.German.AC3D.DL.1...
Braven.2018.German.AC3D.DL.7...
Smallfoot.Ein.eisigartiges.A...
Smallfoot.Ein.eisigartiges.A...
Halloween.German.DL.AC3.Dubb...
Halloween.German.DL.AC3.Dubb...
Freaky.Friday.German.DL.AC3....
Freaky.Friday.German.DL.AC3....

Neuerscheinungen 2017-18
Koenig.der.Loewen.The.Lion.K...
BuyBust.2018.DUAL.COMPLETE.B...
The.Darkest.Minds.Die.Ueberl...
Battle.2018.German.720p.WEB....
Battle.2018.German.1080p.WEB...
Angelas.Weihnachten.2018.Ger...
Angelas.Weihnachten.2018.Ger...
The.Mermaid.Lake.of.the.Dead...
The.Mermaid.Lake.of.the.Dead...
Ouija.Seance.The.Final.Game....

XXX
CuckoldSessions.18.11.25.Kat...
DesperateAmateurs.18.11.25.K...
EvilAngel.Top.Heavy.Sluts.XX...
ATKHairy.18.11.23.Lexa.XXX.1...
FootsieBabes.18.11.25.Lilu.M...
GirlsOutWest.18.11.25.Amber....
CzechEscortGirls.18.11.26.Ti...
DorcelClub.18.11.26.Alyssia....
DDFBusty.18.11.25.Victoria.J...
ATKGirlfriends.18.11.25.Lucy...
ATKHairy.18.11.26.Nenetl.Avr...
Cucked.18.11.26.Skylar.Snow....
AdultAuditions.E264.Paige.My...
FakeDrivingSchool.18.11.26.G...
EuroTeenErotica.18.11.26.Mia...
Cosmid.18.11.26.Allie.Reed.F...
GirlsTryAnal.18.11.25.Penny....
CzechEscortGirls.18.11.26.Ka...
FirstAnalQuest.18.11.25.Eva....
FitnessRooms.18.11.26.Boni.J...

3D
The.Art.of.Flight.3D.2011.Ge...
The.End.Of.The.World.3D.2010...
The.First.Avenger.Civil.War....
Die.Unglaublichen.2.2018.3D....
Skyscraper.3D.2018.MULTi.COM...
Ant-Man.And.The.Wasp.3D.2018...
Ant.Man.and.the.Wasp.3D.2018...
Die.Unglaublichen.2.3D.2018....
Die.Unglaublichen.2.2018.3D....
Die.Unglaublichen.2.2018.3D....
Sharknado.6.The.Last.One.3D....
Deep.Kleine.Helden.der.Tiefs...
Deep.3D.2017.MULTI.COMPLETE....
Detective.Dee.und.die.Legend...
Detective.Dee.und.die.Legend...

Old_Stuff
Akte.X.S03.German.DTS.DL.108...
Dunkirk.1958.COMPLETE.BLURAY...
Das.Wunder.von.Manhattan.199...
The.Amazing.Spiderman.2.Rise...
Rise.of.the.Predator.2014.Ge...
Detective.Dee.und.das.Geheim...
Detective.Dee.Und.Der.Fluch....
Ghost.Rider.Spirit.of.Vengea...
Species.IV.Das.Erwachen.2007...
Species.IV.Das.Erwachen.2007...
Hotel.Transsilvanien.2012.Ge...
The.Dead.2010.German.DL.1080...
The.Dead.2.India.2013.German...
Britney.Spears.Live.The.Femm...
Buffy.The.Vampire.Slayer.199...

Filme
4.Blocks.S02.COMPLETE.German...
4.Blocks.S01.COMPLETE.GERMAN...
4.Blocks.S01.COMPLETE.GERMAN...
The.Walking.Dead.S8D1-5.UNCU...
Star.Wars.Rebels.S03D01-3.MU...
Mars.S02.GERMAN.DL.1080p.HDT...
Supernatural.S13.COMPLETE.DL...
Supernatural.S13.COMPLETE.DL...
Quantico.S03.GERMAN.DL.DUBBE...
Quantico.S03.GERMAN.DUBBED.7...
Marvels.Inhumans.S01.German....
Marvels.Inhumans.S01.German....
Der.Koenig.Der.Loewen.1994.G...
Der.Koenig.Der.Loewen.1994.G...
Cliffhanger.Nur.die.Starken....
Die.Verdammten.der.Meere.196...
Duell.der.Magier.2010.1080p....
Hotel.Transsilvanien.3.Ein.M...
Die.Schoenen.der.Nacht.UNCUT...
Fear.the.Walking.Dead.S04D01...
Hotel.Transsilvanien.3.Ein.M...
The.Originals.S05.GERMAN.5.1...
The.Originals.S05.GERMAN.720...
Preacher.S03D01-3.COMPLETE.B...

 
 
4.Blocks.S02.COMPLETE.German.720p.BluRay.x264-RWP

Jahr: 2018
Genre: Krimi | Drama
Sprache: Deutsch DTS
Laufzeit: 50min je Folge
Bitrate: 1700 Kbps
Format: MKV
Größe: 1,1 GB je Folge
Release:

Beschreibung:

Ali „Toni“ Hamady ist Anführer eines Familienclans, bei dem alle Fäden des organisierten Verbrechens in Neukölln und Umgebung zusammenlaufen. Nach langen Jahren möchte sich der Libanese aus dem illegalen Geschäft zurückziehen. Leicht wird es ihm nicht gemacht, zumal sein Schwager mit Drogen im Auto verhaftet wurde. Für die Nachfolge käme also nur sein Bruder Abbas in Frage, doch der ist unberechenbar. In diesem heiklen Moment tritt Tonis alter Freund Vince wieder in sein Leben – doch der ist verdeckter Ermittler.



General
Complete name                            : 4.Blocks.S02E01.German.720p.BluRay.x264-RWP\4.blocks.s02e01.german.720p.bluray.x264-rwp.mkv
Format                                   : Matroska
Format version                           : Version 4 / Version 2
File size                                : 1.13 GiB
Duration                                 : 49mn 17s
Overall bit rate                         : 3 278 Kbps
Encoded date                             : UTC 2018-12-01 14:52:40
Writing application                      : mkvmerge v19.0.0 ('Brave Captain') 64-bit
Writing library                          : libebml v1.3.5 + libmatroska v1.4.8
DURATION                                 : 00:49:16.822000000
NUMBER_OF_FRAMES                         : 277202
NUMBER_OF_BYTES                          : 557730424
_STATISTICS_WRITING_APP                  : mkvmerge v19.0.0 ('Brave Captain') 64-bit
_STATISTICS_WRITING_DATE_UTC             : 2018-12-01 14:52:40
_STATISTICS_TAGS                         : BPS DURATION NUMBER_OF_FRAMES NUMBER_OF_BYTES

Video
ID                                       : 1
Format                                   : AVC
Format/Info                              : Advanced Video Codec
Format profile                           : High@L4.1
Format settings, CABAC                   : Yes
Format settings, ReFrames                : 5 frames
Codec ID                                 : V_MPEG4/ISO/AVC
Duration                                 : 49mn 17s
Bit rate                                 : 1 704 Kbps
Width                                    : 1 280 pixels
Height                                   : 720 pixels
Display aspect ratio                     : 16:9
Frame rate mode                          : Constant
Frame rate                               : 25.000 fps
Color space                              : YUV
Chroma subsampling                       : 4:2:0
Bit depth                                : 8 bits
Scan type                                : Progressive
Bits/(Pixel*Frame)                       : 0.074
Stream size                              : 601 MiB (52%)
Writing library                          : x264 core 157 r2935 545de2f
Encoding settings                        : cabac=1 / ref=5 / deblock=1:-3:-3 / analyse=0x3:0x133 / me=hex / subme=8 / psy=1 / psy_rd=1.00:0.15 / mixed_ref=1 / me_range=16 / chroma_me=1 / trellis=2 / 8x8dct=1 / cqm=0 / deadzone=21,11 / fast_pskip=0 / chroma_qp_offset=-3 / threads=22 / lookahead_threads=3 / sliced_threads=0 / nr=0 / decimate=1 / interlaced=0 / bluray_compat=0 / constrained_intra=0 / bframes=3 / b_pyramid=2 / b_adapt=1 / b_bias=0 / direct=3 / weightb=1 / open_gop=0 / weightp=2 / keyint=250 / keyint_min=25 / scenecut=40 / intra_refresh=0 / rc_lookahead=50 / rc=crf / mbtree=1 / crf=20.0 / qcomp=0.60 / qpmin=0 / qpmax=69 / qpstep=4 / ip_ratio=1.40 / aq=1:1.00
Language                                 : English
Default                                  : Yes
Forced                                   : No

Audio
ID                                       : 4
Format                                   : DTS
Format/Info                              : Digital Theater Systems
Mode                                     : 16
Format settings, Endianness              : Big
Codec ID                                 : A_DTS
Duration                                 : 49mn 17s
Bit rate mode                            : Constant
Bit rate                                 : 1 509 Kbps
Channel(s)                               : 6 channels
Channel positions                        : Front: L C R, Side: L R, LFE
Sampling rate                            : 48.0 KHz
Bit depth                                : 24 bits
Compression mode                         : Lossy
Stream size                              : 532 MiB (46%)
Language                                 : German
Default                                  : Yes
Forced                                   : No

Menu
00:00:00.000                             : en:00:00:00.000
00:07:45.440                             : en:00:07:45.440
00:21:24.560                             : en:00:21:24.560
00:33:44.280                             : en:00:33:44.280
00:47:48.360                             : en:00:47:48.360



Download:
Share-Online.biz Share-Online.bizShare-Online.bizShare-Online.biz | Rapidgator.net Rapidgator.netRapidgator.netRapidgator.net
 

Kommentare