Filecrypt zeigt vereinzelt Files als "n/a". Die Downloads sind trotzdem komplett.

DNS SERVER AENDERNum der staatlichen Zensur zu umgehen. Sollten wir von eurem Provider geseprrt werden, nutzt den TOR BROWSER oder ändert euren DNS SERVER.

Filmwünsche können bei uns im Forum abgegeben werden

Wir Speichern Nicht




 
 
 
Top Releases
Burnt.Im.Rausch.der.Sterne.2...
Sicario.2.Soldado.2018.Germa...
Hotel.Artemis.German.DL.720p...
Hotel.Artemis.German.DL.1080...
Dead.in.a.Week.Oder.Geld.zur...
Dead.in.a.Week.Oder.Geld.zur...
Die.Welt.gehoert.dir.2018.Ge...
Die.Welt.gehoert.dir.2018.Ge...
Paradox.Kill.Zone.Bangkok.20...
Paradox.Kill.Zone.Bangkok.20...

Cinedubs
I.Still.See.You.Sie.lassen.d...
I.Still.See.You.Sie.lassen.d...
Braven.2018.German.AC3D.DL.1...
Braven.2018.German.AC3D.DL.7...
Smallfoot.Ein.eisigartiges.A...
Smallfoot.Ein.eisigartiges.A...
Halloween.German.DL.AC3.Dubb...
Halloween.German.DL.AC3.Dubb...
Freaky.Friday.German.DL.AC3....
Freaky.Friday.German.DL.AC3....

Neuerscheinungen 2017-18
The.Darkest.Minds.Die.Ueberl...
Battle.2018.German.720p.WEB....
Battle.2018.German.1080p.WEB...
Angelas.Weihnachten.2018.Ger...
Angelas.Weihnachten.2018.Ger...
The.Mermaid.Lake.of.the.Dead...
The.Mermaid.Lake.of.the.Dead...
Ouija.Seance.The.Final.Game....
Ouija.Seance.The.Final.Game....
Reprisal.Nimm.Dir.was.Dir.ge...

XXX
DorcelClub.18.11.26.Alyssia....
DDFBusty.18.11.25.Victoria.J...
ATKGirlfriends.18.11.25.Lucy...
ATKHairy.18.11.26.Nenetl.Avr...
Cucked.18.11.26.Skylar.Snow....
AdultAuditions.E264.Paige.My...
FakeDrivingSchool.18.11.26.G...
EuroTeenErotica.18.11.26.Mia...
Cosmid.18.11.26.Allie.Reed.F...
GirlsTryAnal.18.11.25.Penny....
CzechEscortGirls.18.11.26.Ka...
FirstAnalQuest.18.11.25.Eva....
FitnessRooms.18.11.26.Boni.J...
CzechEscortGirls.18.11.26.Re...
DadCrush.18.11.25.Jasmine.Ve...
EvilAngel.Top.Heavy.Sluts.XX...
GirlsOutWest.18.11.26.Montan...
FTVMilfs.18.11.26.Eve.A.Busy...
FakeTaxi.18.11.25.Luna.Toxxx...
FirstAnalDate.18.11.13.Marse...

3D
The.Art.of.Flight.3D.2011.Ge...
The.End.Of.The.World.3D.2010...
The.First.Avenger.Civil.War....
Die.Unglaublichen.2.2018.3D....
Skyscraper.3D.2018.MULTi.COM...
Ant-Man.And.The.Wasp.3D.2018...
Ant.Man.and.the.Wasp.3D.2018...
Die.Unglaublichen.2.3D.2018....
Die.Unglaublichen.2.2018.3D....
Die.Unglaublichen.2.2018.3D....
Sharknado.6.The.Last.One.3D....
Deep.Kleine.Helden.der.Tiefs...
Deep.3D.2017.MULTI.COMPLETE....
Detective.Dee.und.die.Legend...
Detective.Dee.und.die.Legend...

Old_Stuff
Akte.X.S03.German.DTS.DL.108...
Dunkirk.1958.COMPLETE.BLURAY...
Das.Wunder.von.Manhattan.199...
The.Amazing.Spiderman.2.Rise...
Rise.of.the.Predator.2014.Ge...
Detective.Dee.und.das.Geheim...
Detective.Dee.Und.Der.Fluch....
Ghost.Rider.Spirit.of.Vengea...
Species.IV.Das.Erwachen.2007...
Species.IV.Das.Erwachen.2007...
Hotel.Transsilvanien.2012.Ge...
The.Dead.2010.German.DL.1080...
The.Dead.2.India.2013.German...
Britney.Spears.Live.The.Femm...
Buffy.The.Vampire.Slayer.199...

Filme
Teen.Wolf.S06D01-3.MULTi.COM...
There.Will.Be.Blood.2007.Ger...
Overboard.-.Ein.Goldfisch.fa...
Schneefloeckchen.2017.German...
Scorpion.King.Das.Buch.der.S...
Radio.Days.1987.German.DL.10...
Radio.Rebel.Unueberhoerbar.2...
Radio.Silence.Der.Tod.hoert....
Rage.2.2010.German.DL.1080p....
Rage.2009.German.DL.1080p.Bl...
Hotel.Artemis.2018.German.DT...
Stanley.und.Iris.1990.German...
The.Walking.Dead.S08D1-4.UNC...
Once.Upon.a.Time.S07.German....
Once.Upon.a.Time.S07.German....
American.Horror.Story.S08.GE...
American.Horror.Story.S08.GE...
Brawl.in.Cell.Block.99.2017....
Papillon.2017.German.DTS.DL....
Papillon.2017.German.DTS.DL....
Quarantaene.2008.German.AC3....
Glueck.im.Hinterhaus.1980.Ge...
Meg.2018.German.DL.720p.BluR...
Meg.2018.German.DL.1080p.Blu...

 
 
Burnt.Im.Rausch.der.Sterne.2015.German.AC3.DL.1080p.BluRay.x265-FuN-low

Jahr: 2015
Genre: Drama, Komödie
Sprache: Deutsch AC3
Laufzeit: 1h 40mn
Bitrate: 2 366 Kbps
Format: MKV
Größe: 1.66 GiB
Release:

Beschreibung:

Adam Jones ist wie ein Rockstar: Genial, erfolgreich, leidenschaftlich und mit einem äußerst exzessiven Lebensstil. Dieser kostet ihn den Job als Chefkoch in einem der exklusivsten Sternerestaurants in Paris. Ein tiefer Fall, aber nach über zwei Jahren ist Adam Jones clean und zurück in seiner Wahlheimatstadt London. Er taucht bei seinem alten Freund Tony auf und will dessen Restaurant zur neuen Topadresse machen. Tony ist hin und her gerissen zwischen der Genialität und dem Wahnsinn seines Freundes, willigt aber schließlich ein und Adam legt los. Er will die Besten der Besten im Team für sein bahnbrechendes Restaurant, er will 3 Sterne – und er will Helene, die außergewöhnlich begnadet kocht und zudem noch sehr attraktiv ist. Einziges Problem: Helene kann Adam nicht ausstehen, der wie ein Besessener seine Mitarbeiter für ein perfektes Menü in den Wahnsinn treibt und regelmäßig die Beherrschung verliert. Letztendlich jedoch besitzen beide die gleiche Leidenschaft, brauchen die Hitze, den Druck und die Energie der Küche wie die Luft zum Atmen – aber Adam muss begreifen, dass sie nur im Team die Gourmetwelt Londons wirklich rocken können!




File size                                : 1.66 GiB
Duration                                 : 1h 40mn
Overall bit rate                         : 2 366 Kbps
Movie name                               : hdsource-burntimrauschdersterne
Encoded date                             : UTC 2018-11-22 18:09:13
Writing application                      : mkvmerge v28.2.0 ('The Awakening') 64-bit
Writing library                          : libebml v1.3.6 + libmatroska v1.4.9

Video
ID                                       : 1
Format                                   : HEVC
Format/Info                              : High Efficiency Video Coding
Format profile                           : Main@L4.0
Codec ID                                 : V_MPEGH/ISO/HEVC
Duration                                 : 1h 40mn
Bit rate                                 : 1 551 Kbps
Width                                    : 1 920 pixels
Height                                   : 804 pixels
Display aspect ratio                     : 2.40:1
Frame rate mode                          : Constant
Frame rate                               : 24.000 fps
Color space                              : YUV
Chroma subsampling                       : 4:2:0
Bit depth                                : 8 bits
Bits/(Pixel*Frame)                       : 0.042
Stream size                              : 1.09 GiB (66%)
Writing library                          : x265 2.6:[Linux][GCC 6.4.0][64 bit] 8bit+10bit+12bit
Encoding settings                        : cpuid=1173503 / frame-threads=3 / wpp / no-pmode / no-pme / no-psnr / no-ssim / log-level=2 / input-csp=1 / input-res=1920x804 / interlace=0 / total-frames=0 / level-idc=0 / high-tier=1 / uhd-bd=0 / ref=2 / no-allow-non-conformance / no-repeat-headers / annexb / no-aud / no-hrd / info / hash=0 / no-temporal-layers / open-gop / min-keyint=24 / keyint=240 / bframes=4 / b-adapt=0 / b-pyramid / bframe-bias=0 / rc-lookahead=15 / lookahead-slices=5 / scenecut=40 / no-intra-refresh / ctu=64 / min-cu-size=8 / no-rect / no-amp / max-tu-size=32 / tu-inter-depth=1 / tu-intra-depth=1 / limit-tu=0 / rdoq-level=0 / dynamic-rd=0.00 / no-ssim-rd / signhide / no-tskip / nr-intra=0 / nr-inter=0 / no-constrained-intra / no-strong-intra-smoothing / max-merge=2 / limit-refs=3 / no-limit-modes / me=1 / subme=2 / merange=57 / temporal-mvp / weightp / no-weightb / no-analyze-src-pics / deblock=0:0 / sao / no-sao-non-deblock / rd=2 / early-skip / rskip / fast-intra / no-tskip-fast / no-cu-lossless / no-b-intra / no-splitrd-skip / rdpenalty=0 / psy-rd=2.00 / psy-rdoq=0.00 / no-rd-refine / analysis-reuse-mode=0 / no-lossless / cbqpoffs=0 / crqpoffs=0 / rc=crf / crf=20.0 / qcomp=0.60 / qpstep=4 / stats-write=0 / stats-read=0 / ipratio=1.40 / pbratio=1.30 / aq-mode=1 / aq-strength=1.00 / cutree / zone-count=0 / no-strict-cbr / qg-size=32 / no-rc-grain / qpmax=69 / qpmin=0 / no-const-vbv / sar=1 / overscan=0 / videoformat=5 / range=0 / colorprim=1 / transfer=1 / colormatrix=1 / chromaloc=0 / display-window=0 / max-cll=0,0 / min-luma=0 / max-luma=255 / log2-max-poc-lsb=8 / vui-timing-info / vui-hrd-info / slices=1 / no-opt-qp-pps / no-opt-ref-list-length-pps / no-multi-pass-opt-rps / scenecut-bias=0.05 / no-opt-cu-delta-qp / no-aq-motion / no-hdr / no-hdr-opt / no-dhdr10-opt / analysis-reuse-level=5 / scale-factor=0 / refine-intra=0 / refine-inter=0 / refine-mv=0 / no-limit-sao / ctu-info=0 / no-lowpass-dct / refine-mv-type=0 / copy-pic=1
Default                                  : Yes
Forced                                   : No
DURATION                                 : 01:40:26.792000000
NUMBER_OF_FRAMES                         : 144643
NUMBER_OF_BYTES                          : 1175419575
_STATISTICS_WRITING_APP                  : mkvmerge v28.2.0 ('The Awakening') 64-bit
_STATISTICS_WRITING_DATE_UTC             : 2018-11-22 18:09:13
_STATISTICS_TAGS                         : BPS DURATION NUMBER_OF_FRAMES NUMBER_OF_BYTES

Audio #1
ID                                       : 2
Format                                   : AC-3
Format/Info                              : Audio Coding 3
Mode extension                           : CM (complete main)
Format settings, Endianness              : Big
Codec ID                                 : A_AC3
Duration                                 : 1h 40mn
Bit rate mode                            : Constant
Bit rate                                 : 384 Kbps
Channel(s)                               : 6 channels
Channel positions                        : Front: L C R, Side: L R, LFE
Sampling rate                            : 48.0 KHz
Bit depth                                : 16 bits
Compression mode                         : Lossy
Stream size                              : 276 MiB (16%)
Title                                    : Surround
Language                                 : German
Default                                  : Yes
Forced                                   : No
DURATION                                 : 01:40:26.752000000
NUMBER_OF_FRAMES                         : 188336
NUMBER_OF_BYTES                          : 289284096
_STATISTICS_WRITING_APP                  : mkvmerge v28.2.0 ('The Awakening') 64-bit
_STATISTICS_WRITING_DATE_UTC             : 2018-11-22 18:09:13
_STATISTICS_TAGS                         : BPS DURATION NUMBER_OF_FRAMES NUMBER_OF_BYTES

Audio #2
ID                                       : 3
Format                                   : AC-3
Format/Info                              : Audio Coding 3
Mode extension                           : CM (complete main)
Format settings, Endianness              : Big
Codec ID                                 : A_AC3
Duration                                 : 1h 40mn
Bit rate mode                            : Constant
Bit rate                                 : 384 Kbps
Channel(s)                               : 6 channels
Channel positions                        : Front: L C R, Side: L R, LFE
Sampling rate                            : 48.0 KHz
Bit depth                                : 16 bits
Compression mode                         : Lossy
Stream size                              : 276 MiB (16%)
Title                                    : Surround
Language                                 : English
Default                                  : No
Forced                                   : No
DURATION                                 : 01:40:26.752000000
NUMBER_OF_FRAMES                         : 188336
NUMBER_OF_BYTES                          : 289284096
_STATISTICS_WRITING_APP                  : mkvmerge v28.2.0 ('The Awakening') 64-bit
_STATISTICS_WRITING_DATE_UTC             : 2018-11-22 18:09:13
_STATISTICS_TAGS                         : BPS DURATION NUMBER_OF_FRAMES NUMBER_OF_BYTES

Text #1



Download:
Share Online Share OnlineShare OnlineShare Online
 

Kommentare