Filecrypt zeigt vereinzelt Files als "n/a". Die Downloads sind trotzdem komplett.

DNS SERVER AENDERNum der staatlichen Zensur zu umgehen. Sollten wir von eurem Provider geseprrt werden, nutzt den TOR BROWSER oder ändert euren DNS SERVER.

Filmwünsche können bei uns im Forum abgegeben werden

Wir Speichern Nicht




 
 
 
Top Releases
The.Keeping.Hours.2017.Germa...
Der.die.Zeichen.liest.The.St...
Operation.Chromite.2016.Germ...
Jim.Knopf.und.Lukas.der.Loko...
Sicario.2.Soldado.2018.Germa...
Sicario.2.Soldado.2018.Germa...
Ein.Kind.zur.Zeit.German.DL....
Ein.Kind.zur.Zeit.German.DL....
Backstabbing.for.Beginners.2...
Backstabbing.for.Beginners.2...

Cinedubs
The.Happytime.Murders.Kein.S...
The.Happytime.Murders.Kein.S...
Peppermint.Angel.of.Vengeanc...
Peppermint.Angel.of.Vengeanc...
The.Nun.German.AC3D.DL.1080p...
Christopher.Robin.German.DL....
Christopher.Robin.German.DL....
A.Star.Is.Born.German.DL.AC3...
A.Star.Is.Born.German.DL.AC3...
Mission.Impossible.Fallout.G...

Neuerscheinungen 2017-18
Tage.wie.dieser.1996.German....
Romance.and.Cigarettes.2005....
Der.Boxer.1997.German.DL.108...
Wuff.Star.Weihnachten.2018.G...
Wuff.Star.Weihnachten.2018.G...
Der.sechste.Kontinent.1976.G...
Squirm.1976.MULTi.COMPLETE.B...
Strasse.der.Gewalt.White.Lin...
Darkman.II.The.Return.Of.Dur...
Spuk.von.draussen.1987.GERMA...

XXX
EvilAngel.Double.Duty.Booty....
EvilAngel.Double.Duty.Booty....
ATKGirlfriends.18.11.19.Kenz...
Anilos.18.11.20.Midge.Take.I...
ATKHairy.18.11.18.Lauren.Lau...
GirlFap.E67.Stephani.Moretti...
ATKGirlfriends.18.11.20.Gia....
AssTraffic.18.11.20.Alexis.C...
GirlFap.E68.Cayla.Lyons.Your...
ConorCoxxx.17.12.01.Kate.Eng...
Beauty-Angels.18.11.20.Jenif...
AllOver30.18.11.19.Lauren.Ph...
ConorCoxxx.17.12.15.Alura.Je...
ConorCoxxx.17.12.29.Marina.M...
ConorCoxxx.17.12.22.Payton.H...
ATKHairy.18.11.18.Nenetl.Avr...
BurningAngel.18.11.20.Rosaly...
BackroomCastingCouch.18.11.1...
AnalTeenAngels.18.11.20.Ange...
GirlsOutWest.18.11.19.Daliah...

3D
The.Art.of.Flight.3D.2011.Ge...
The.End.Of.The.World.3D.2010...
The.First.Avenger.Civil.War....
Die.Unglaublichen.2.2018.3D....
Skyscraper.3D.2018.MULTi.COM...
Ant-Man.And.The.Wasp.3D.2018...
Ant.Man.and.the.Wasp.3D.2018...
Die.Unglaublichen.2.3D.2018....
Die.Unglaublichen.2.2018.3D....
Die.Unglaublichen.2.2018.3D....
Sharknado.6.The.Last.One.3D....
Deep.Kleine.Helden.der.Tiefs...
Deep.3D.2017.MULTI.COMPLETE....
Detective.Dee.und.die.Legend...
Detective.Dee.und.die.Legend...

Old_Stuff
Dunkirk.1958.COMPLETE.BLURAY...
Das.Wunder.von.Manhattan.199...
The.Amazing.Spiderman.2.Rise...
Rise.of.the.Predator.2014.Ge...
Detective.Dee.und.das.Geheim...
Detective.Dee.Und.Der.Fluch....
Ghost.Rider.Spirit.of.Vengea...
Species.IV.Das.Erwachen.2007...
Species.IV.Das.Erwachen.2007...
Hotel.Transsilvanien.2012.Ge...
The.Dead.2010.German.DL.1080...
The.Dead.2.India.2013.German...
Britney.Spears.Live.The.Femm...
Buffy.The.Vampire.Slayer.199...
IMAX.Ride.Around.The.World.2...

Filme
Mamma.Mia.Here.We.Go.Again.2...
Die.Reise.ins.Labyrinth.1986...
Tage.wie.dieser.1996.German....
Romance.and.Cigarettes.2005....
Der.Boxer.1997.German.720p.B...
D.Day.Allein.unter.Feinden.2...
Der.sechste.Kontinent.1976.G...
Alien.Resurrection.1997.Thea...
Topper.2.-.Das.Gespenstersch...
Mamma.Mia.Here.We.Go.Again.2...
Romance.and.Cigarettes.2005....
Lucky.Luke.1991.1992.3.Disc....
Mission.Impossible.Fallout.2...
Marvels.Agents.of.S.H.I.E.L....
Marvels.Agents.of.S.H.I.E.L....
Humans.S03.GERMAN.DL.720p.HD...
1000.Yards.Zwischen.Leben.un...
Dead.Draw.2016.GERMAN.DL.108...
Star.Wars.Episode.VIII.Die.l...
The.Return.of.the.First.Aven...
Angel.Town.UNCUT.REMASTERED....
Anger.of.the.Dead.2015.Germa...
Angriff.der.Killerbienen.199...
Black.Panther.2018.German.DL...

 
 
Der.die.Zeichen.liest.The.Student.2016.German.AC3D.DL.1080p.WEB-DL.x265-FuN

Jahr: 2016
Genre: Drama
Sprache: Deutsch AC3 | Englisch AC3
Laufzeit: 1h 53mn
Bitrate: 1 917 Kbps
Format: MKV
Größe: 1.51 GiB
Release:

Beschreibung:

Benjamin (Petr Skvortsov) geht auf eine aufgeklärte, staatliche Schule. Als er sich eines Tages weigert, am Schwimmunterricht teilzunehmen, liegt es allerdings nicht an einer unkontrollierbaren Erektion, wie seine Mutter vermutet. Nein, Benjamin sieht im Anblick seiner leicht bekleideten Mitschülerinnen seinen Glauben zutiefst verletzt. Frisch zum Christentum konvertiert, rebelliert er hartnäckig und wortgewandt wie ein moderner Missionar und Kreuzzügler gegen Homosexuelle, die Scheidung und die Evolutionstheorie, wobei er sich stets aus der Bibel bedient. Abgesehen von der Biologielehrerin Elena (Victoria Isakova) wehrt sich niemand im Kollegium gegen Benjamin und so hat er schon bald Erfolge: Mädchen müssen in Badeanzügen schwimmen, Kondome werden im Unterricht verschwiegen. Doch Benjamin reicht das nicht. Jesus‘ angebliche Feinde dürfen nicht ungeschoren davonkommen, meint er…




Format                                   : Matroska
Format version                           : Version 4 / Version 2
File size                                : 1.51 GiB
Duration                                 : 1h 53mn
Overall bit rate                         : 1 917 Kbps
Encoded date                             : UTC 2018-11-19 21:04:37
Writing application                      : mkvmerge v10.0.0 ('To Drown In You') 64bit
Writing library                          : libebml v1.3.4 + libmatroska v1.4.5
DURATION                                 : 01:51:15.114000000
NUMBER_OF_FRAMES                         : 1606
NUMBER_OF_BYTES                          : 1385577
_STATISTICS_WRITING_APP                  : mkvmerge v10.0.0 ('To Drown In You') 64bit
_STATISTICS_WRITING_DATE_UTC             : 2018-11-19 21:04:37
_STATISTICS_TAGS                         : BPS DURATION NUMBER_OF_FRAMES NUMBER_OF_BYTES

Video
ID                                       : 1
Format                                   : HEVC
Format/Info                              : High Efficiency Video Coding
Format profile                           : Main@L4.0
Codec ID                                 : V_MPEGH/ISO/HEVC
Duration                                 : 1h 53mn
Bit rate                                 : 1 111 Kbps
Width                                    : 1 916 pixels
Height                                   : 720 pixels
Display aspect ratio                     : 2.661
Frame rate mode                          : Constant
Frame rate                               : 25.000 fps
Color space                              : YUV
Chroma subsampling                       : 4:2:0
Bit depth                                : 8 bits
Bits/(Pixel*Frame)                       : 0.032
Stream size                              : 898 MiB (58%)
Writing library                          : x265 2.6:[Windows][GCC 7.3.0][64 bit] 8bit+10bit+12bit
Encoding settings                        : cpuid=1173503 / frame-threads=3 / numa-pools=8 / wpp / no-pmode / no-pme / no-psnr / no-ssim / log-level=2 / input-csp=1 / input-res=1916x720 / interlace=0 / total-frames=0 / level-idc=0 / high-tier=1 / uhd-bd=0 / ref=3 / no-allow-non-conformance / no-repeat-headers / annexb / no-aud / no-hrd / info / hash=0 / no-temporal-layers / open-gop / min-keyint=25 / keyint=250 / bframes=4 / b-adapt=2 / b-pyramid / bframe-bias=0 / rc-lookahead=20 / lookahead-slices=4 / scenecut=40 / no-intra-refresh / ctu=64 / min-cu-size=8 / no-rect / no-amp / max-tu-size=32 / tu-inter-depth=1 / tu-intra-depth=1 / limit-tu=0 / rdoq-level=0 / dynamic-rd=0.00 / no-ssim-rd / signhide / no-tskip / nr-intra=0 / nr-inter=0 / no-constrained-intra / no-strong-intra-smoothing / max-merge=2 / limit-refs=3 / no-limit-modes / me=1 / subme=2 / merange=57 / temporal-mvp / weightp / no-weightb / no-analyze-src-pics / deblock=0:0 / no-sao / no-sao-non-deblock / rd=3 / no-early-skip / rskip / no-fast-intra / no-tskip-fast / no-cu-lossless / no-b-intra / no-splitrd-skip / rdpenalty=0 / psy-rd=2.00 / psy-rdoq=0.00 / no-rd-refine / analysis-reuse-mode=0 / no-lossless / cbqpoffs=0 / crqpoffs=0 / rc=crf / crf=23.0 / qcomp=0.60 / qpstep=4 / stats-write=0 / stats-read=0 / ipratio=1.40 / pbratio=1.30 / aq-mode=1 / aq-strength=1.00 / cutree / zone-count=0 / no-strict-cbr / qg-size=32 / no-rc-grain / qpmax=69 / qpmin=0 / no-const-vbv / sar=1 / overscan=0 / videoformat=5 / range=0 / colorprim=1 / transfer=1 / colormatrix=1 / chromaloc=0 / display-window=0 / max-cll=0,0 / min-luma=0 / max-luma=255 / log2-max-poc-lsb=8 / vui-timing-info / vui-hrd-info / slices=1 / no-opt-qp-pps / no-opt-ref-list-length-pps / no-multi-pass-opt-rps / scenecut-bias=0.05 / no-opt-cu-delta-qp / no-aq-motion / no-hdr / no-hdr-opt / no-dhdr10-opt / analysis-reuse-level=5 / scale-factor=0 / refine-intra=0 / refine-inter=0 / refine-mv=0 / no-limit-sao / ctu-info=0 / no-lowpass-dct / refine-mv-type=0 / copy-pic=1
Default                                  : Yes
Forced                                   : No
DURATION                                 : 01:53:02.920000000
NUMBER_OF_FRAMES                         : 169573
NUMBER_OF_BYTES                          : 971451732
_STATISTICS_WRITING_APP                  : mkvmerge v10.0.0 ('To Drown In You') 64bit
_STATISTICS_WRITING_DATE_UTC             : 2018-11-19 21:04:37
_STATISTICS_TAGS                         : BPS DURATION NUMBER_OF_FRAMES NUMBER_OF_BYTES

Audio #1
ID                                       : 2
Format                                   : AC-3
Format/Info                              : Audio Coding 3
Mode extension                           : CM (complete main)
Format settings, Endianness              : Big
Codec ID                                 : A_AC3
Duration                                 : 1h 53mn
Bit rate mode                            : Constant
Bit rate                                 : 384 Kbps
Channel(s)                               : 6 channels
Channel positions                        : Front: L C R, Side: L R, LFE
Sampling rate                            : 48.0 KHz
Bit depth                                : 16 bits
Compression mode                         : Lossy
Delay relative to video                  : -5ms
Stream size                              : 311 MiB (20%)
Title                                    : Surround
Language                                 : German
Default                                  : Yes
Forced                                   : No
DURATION                                 : 01:53:02.944000000
NUMBER_OF_FRAMES                         : 211967
NUMBER_OF_BYTES                          : 325581312
_STATISTICS_WRITING_APP                  : mkvmerge v10.0.0 ('To Drown In You') 64bit
_STATISTICS_WRITING_DATE_UTC             : 2018-11-19 21:04:37
_STATISTICS_TAGS                         : BPS DURATION NUMBER_OF_FRAMES NUMBER_OF_BYTES

Audio #2
ID                                       : 3
Format                                   : AC-3
Format/Info                              : Audio Coding 3
Mode extension                           : CM (complete main)
Format settings, Endianness              : Big
Codec ID                                 : A_AC3
Duration                                 : 1h 53mn
Bit rate mode                            : Constant
Bit rate                                 : 384 Kbps
Channel(s)                               : 6 channels
Channel positions                        : Front: L C R, Side: L R, LFE
Sampling rate                            : 48.0 KHz
Bit depth                                : 16 bits
Compression mode                         : Lossy
Stream size                              : 311 MiB (20%)
Title                                    : Surround
Language                                 : Russian
Default                                  : No
Forced                                   : No



Download:
Share Online Share OnlineShare OnlineShare Online
 

Kommentare