Filecrypt zeigt vereinzelt Files als "n/a". Die Downloads sind trotzdem komplett.

DNS SERVER AENDERNum der staatlichen Zensur zu umgehen. Sollten wir von eurem Provider geseprrt werden, nutzt den TOR BROWSER oder ändert euren DNS SERVER.

Filmwünsche können bei uns im Forum abgegeben werden

Wir Speichern Nicht




 
 
 
Top Releases
Sicario.2.Soldado.2018.Germa...
Sicario.2.Soldado.2018.Germa...
Ein.Kind.zur.Zeit.German.DL....
Ein.Kind.zur.Zeit.German.DL....
Backstabbing.for.Beginners.2...
Backstabbing.for.Beginners.2...
Jim.Knopf.und.Lukas.der.Loko...
Jim.Knopf.und.Lukas.der.Loko...
Sicario.2.Soldado.2018.MULTi...
Backstabbing.for.Beginners.2...

Cinedubs
The.Happytime.Murders.Kein.S...
The.Happytime.Murders.Kein.S...
Peppermint.Angel.of.Vengeanc...
Peppermint.Angel.of.Vengeanc...
The.Nun.German.AC3D.DL.1080p...
Christopher.Robin.German.DL....
Christopher.Robin.German.DL....
A.Star.Is.Born.German.DL.AC3...
A.Star.Is.Born.German.DL.AC3...
Mission.Impossible.Fallout.G...

Neuerscheinungen 2017-18
Future.World.2018.GERMAN.DL....
Future.World.2018.GERMAN.720...
Collateral.Terror.Battle.for...
Arbor.Men.Eine.daemonische.L...
How.to.Party.with.Mom.German...
Tage.wie.dieser.One.Fine.Day...
Arbor.Men.Eine.daemonische.L...
Arbor.Men.Eine.daemonische.L...
Collateral.Terror.Battle.for...
Collateral.Terror.Battle.for...

XXX
Penthouse.Shameless.XXX.1080...
WebYoung.18.10.31.Samantha.H...
ATKGirlfriends.18.11.19.Ashl...
RylskyArt.18.10.28.Yvonne.Vo...
X-Sensual.18.10.24.Bell.Knoc...
RKPrime.18.10.31.Romi.Rain.N...
Vixen.18.10.31.Kissa.Sins.XX...
RealWifeStories.18.10.30.Kik...
Yanks.18.10.30.Elle.Loves.An...
VivThomas.18.10.31.Amirah.Ad...
SexWithMuslims.18.10.31.Katy...
Yanks.18.10.29.Verronica.Pre...
BrazzersExxtra.18.11.20.Lela...
ATKHairy.18.11.17.Kasey.Warn...
21FootArt.18.11.20.Angelika....
1000Facials.18.11.19.Sophies...
ReadyOrNotHereICum.18.10.30....
X-Art.18.10.28.Jade.Tight.Te...
SexArt.18.10.28.Tina.Kay.Syn...
ScamAngels.18.10.28.Vienna.B...

3D
Die.Unglaublichen.2.2018.3D....
Skyscraper.3D.2018.MULTi.COM...
Ant-Man.And.The.Wasp.3D.2018...
Ant.Man.and.the.Wasp.3D.2018...
Die.Unglaublichen.2.3D.2018....
Die.Unglaublichen.2.2018.3D....
Die.Unglaublichen.2.2018.3D....
Sharknado.6.The.Last.One.3D....
Deep.Kleine.Helden.der.Tiefs...
Deep.3D.2017.MULTI.COMPLETE....
Detective.Dee.und.die.Legend...
Detective.Dee.und.die.Legend...
Skyscraper.3D.German.DL.AC3....
Ant-Man.and.the.Wasp.2018.3D...
Jurassic.World.Das.gefallene...

Old_Stuff
Dunkirk.1958.COMPLETE.BLURAY...
Das.Wunder.von.Manhattan.199...
The.Amazing.Spiderman.2.Rise...
Rise.of.the.Predator.2014.Ge...
Detective.Dee.und.das.Geheim...
Detective.Dee.Und.Der.Fluch....
Ghost.Rider.Spirit.of.Vengea...
Species.IV.Das.Erwachen.2007...
Species.IV.Das.Erwachen.2007...
Hotel.Transsilvanien.2012.Ge...
The.Dead.2010.German.DL.1080...
The.Dead.2.India.2013.German...
Britney.Spears.Live.The.Femm...
Buffy.The.Vampire.Slayer.199...
IMAX.Ride.Around.The.World.2...

Filme
The.Scorpion.King.2002.Germa...
Hitman.Agent.47.2015.German....
The.Last.Sword.Der.letzte.Fe...
Three.Kingdoms.Der.Krieg.der...
Ace.Ventura.-.Jetzt.wirds.wi...
Sicario.2.Soldado.2018.Germa...
Formel.1.Saison.2018.GERMAN....
Night.Shift.-.Das.Leichenhau...
Shut.Eye.S01.German.DD20.DL....
Shut.Eye.S01.German.DD20.DL....
Krypton.S01.GERMAN.DUBBED.72...
Outlander.S04.German.DD51.DL...
Outlander.S04.German.DD51.DL...
iZombie.S04.German.DD51.Dubb...
iZombie.S04.German.DD51.Dubb...
4.Blocks.S02.GERMAN.1080p.HD...
4.Blocks.S02.GERMAN.720p.HDT...
Star.Wars.Rebels.S04D01-2.MU...
Iron.Man.2008.Open.Matte.DL....
Drachenmaedchen.2012.German....
Ralph.reichts.2012.German.DL...
Blinkende.Lichter.2000.Remas...
The.Gifted.S02.GERMAN.DL.108...
The.Gifted.S02.GERMAN.720p.H...

 
 
Ein.Kind.zur.Zeit.German.DL.720p.BluRay.x264-EmpireHD

Jahr: 2017
Genre: Drama
Sprache: Deutsch DTS | Englisch DTS
Laufzeit: 1h 29mn
Bitrate: 5 118 Kbps
Format: MKV
Größe: 3.20 GiB
Release:

Beschreibung:

Das Leben des erfolgreichen Kinderbuchautors und glücklichen Familienvaters Stephen Lewis gerät eines Tages komplett aus den Fugen. Gerade schlendert er noch wie so häufig mit seiner Tochter bei einem ganz normalen Einkauf durch den Supermarkt, im nächsten Moment ist die Kleine unauffindbar verschwunden. Für das Elternpaar bricht eine Welt zusammen. Auf der verzweifelten Suche nach einem Sinn für das Leben nach dem albtraumhaften Vorfall bewegt sich ihre Ehe unaufhaltsam auf den Abgrund zu, bis nichts mehr zu retten ist. Erst als Stephen seine engsten Freunde auf dem Land besucht, wagt er langsam wieder erste Schritte nach vorn – doch der Weg der Bewältigung, an dessen Anfang er gerade erst steht, scheint unendlich lang.EIN KIND ZUR ZEIT ist die erste Eigenproduktion von und mit dem Oscar®-nominierten Benedict Cumberbatch („Sherlock“, „Doctor Strange“) in der Hauptrolle. Als Literaturvorlage für die herzzerreißende Geschichte über Liebe, Verlust und die Macht des Unvorhersehbaren diente der preisgekrönte Roman von Erfolgsautor Ian McEwan („Abbitte“, „Am Strand“).Bonusmaterial:Making Of;



Complete name                            : empire-ekzz-720p.mkv
Format                                   : Matroska
Format version                           : Version 2
File size                                : 3.20 GiB
Duration                                 : 1h 29mn
Overall bit rate                         : 5 118 Kbps
Writing application                      : mkvmerge v4.1.1 ('Bouncin' Back') built on Jul  3 2010 22:54:08
Writing library                          : libebml v1.0.0 + libmatroska v1.0

Video
ID                                       : 1
Format                                   : AVC
Format/Info                              : Advanced Video Codec
Format profile                           : High@L4.1
Format settings, CABAC                   : Yes
Format settings, ReFrames                : 5 frames
Codec ID                                 : V_MPEG4/ISO/AVC
Duration                                 : 1h 29mn
Bit rate                                 : 1 998 Kbps
Width                                    : 1 280 pixels
Height                                   : 720 pixels
Display aspect ratio                     : 16:9
Frame rate mode                          : Constant
Frame rate                               : 25.000 fps
Color space                              : YUV
Chroma subsampling                       : 4:2:0
Bit depth                                : 8 bits
Scan type                                : Progressive
Bits/(Pixel*Frame)                       : 0.087
Stream size                              : 1.25 GiB (39%)
Writing library                          : x264 core 157 r2935 545de2f
Encoding settings                        : cabac=1 / ref=5 / deblock=1:-3:-3 / analyse=0x3:0x133 / me=umh / subme=8 / psy=1 / psy_rd=1.00:0.15 / mixed_ref=1 / me_range=16 / chroma_me=1 / trellis=1 / 8x8dct=1 / cqm=0 / deadzone=21,11 / fast_pskip=0 / chroma_qp_offset=-3 / threads=9 / lookahead_threads=1 / sliced_threads=0 / nr=0 / decimate=1 / interlaced=0 / bluray_compat=0 / constrained_intra=0 / bframes=3 / b_pyramid=2 / b_adapt=1 / b_bias=0 / direct=3 / weightb=1 / open_gop=0 / weightp=2 / keyint=250 / keyint_min=25 / scenecut=40 / intra_refresh=0 / rc_lookahead=40 / rc=crf / mbtree=1 / crf=20.0 / qcomp=0.60 / qpmin=10 / qpmax=69 / qpstep=4 / ip_ratio=1.40 / aq=1:1.00
Language                                 : English
Default                                  : Yes
Forced                                   : No

Audio #1
ID                                       : 2
Format                                   : DTS
Format/Info                              : Digital Theater Systems
Mode                                     : 16
Format settings, Endianness              : Big
Codec ID                                 : A_DTS
Duration                                 : 1h 29mn
Bit rate mode                            : Constant
Bit rate                                 : 1 509 Kbps
Channel(s)                               : 6 channels
Channel positions                        : Front: L C R, Side: L R, LFE
Sampling rate                            : 48.0 KHz
Bit depth                                : 24 bits
Compression mode                         : Lossy
Stream size                              : 967 MiB (29%)
Language                                 : German
Default                                  : Yes
Forced                                   : No

Audio #2
ID                                       : 3
Format                                   : DTS
Format/Info                              : Digital Theater Systems
Mode                                     : 16
Format settings, Endianness              : Big
Codec ID                                 : A_DTS
Duration                                 : 1h 29mn
Bit rate mode                            : Constant
Bit rate                                 : 1 509 Kbps
Channel(s)                               : 6 channels
Channel positions                        : Front: L C R, Side: L R, LFE
Sampling rate                            : 48.0 KHz
Bit depth                                : 24 bits
Compression mode                         : Lossy
Stream size                              : 967 MiB (29%)
Language                                 : English
Default                                  : No
Forced                                   : No

Text
ID                                       : 4
Format                                   : UTF-8
Codec ID                                 : S_TEXT/UTF8
Codec ID/Info                            : UTF-8 Plain Text
Language                                 : German
Default                                  : Yes
Forced                                   : Yes


Download:
Share Online Share OnlineShare OnlineShare Online
 

Kommentare