DNS SERVER AENDERNum der staatlichen Zensur zu umgehen. Sollten wir von eurem Provider geseprrt werden, nutzt den TOR BROWSER oder ändert euren DNS SERVER.

Filmwünsche können bei uns im Forum abgegeben werden

Wir Speichern Nicht




 
 
 
Top Releases
Der.Nebelmann.2017.GERMAN.72...
Der.Nebelmann.2017.GERMAN.10...
Der.Nebelmann.2017.GERMAN.DU...
Oceans.8.2018.German.AC3.5.1...
Oceans.8.2018.German.AC3.5.1...
Oceans.8.2018.German.AC3.5.1...
Anon.2018.German.AC3.DL.720p...
Anon.2018.German.AC3.DL.1080...
Solo.A.Star.Wars.Story.2018....
Solo.A.Star.Wars.Story.2018....

Cinedubs
Skyscraper.German.DL.AC3.Dub...
Skyscraper.German.DL.AC3.Dub...
Hotel.Artemis.2018.GERMAN.DL...
Hotel.Artemis.2018.GERMAN.DL...
The.First.Purge.2018.German....
The.First.Purge.2018.German....
The.First.Purge.2018.German....
Hotel.Transsilvanien.3.Ein.M...
Hotel.Transsilvanien.3.Ein.M...
Hotel.Transsilvanien.3.Ein.M...

Neuerscheinungen 2017-18
Johnny.Guitar.1954.MULTi.COM...
X-Men.Der.letzte.Widerstand....
Mom.and.Dad.2017.GERMAN.DL.1...
Housesitter.1992.MULTi.COMPL...
X-Men.2.X2.2003.COMPLETE.UHD...
Neun.Monate.Nine.Months.1995...
X-Men.2000.COMPLETE.UHD.BLUR...
Mom.and.Dad.2017.MULTI.COMPL...
The.Asian.Connection.2016.CO...
Mom.and.Dad.2017.GERMAN.720p...

XXX
1By-Day.18.09.19.Florane.Rus...
Aziani.18.09.15.Kacey.Miller...
BackroomCastingCouch.18.09.1...
1000Facials.18.09.17.Olive.G...
AnalTeenAngels.18.09.18.Mery...
Bang.Europe.4.XXX.720p.WEBRi...
AssParade.18.09.17.Valentina...
AllOver30.18.09.18.Kiana.Kra...
Alone.In.Her.Room.2.XXX.720p...
Amateur.Teen.Lap.Grinders.2....
Bang.Europe.4.XXX.1080p.WEBR...
AllOver30.18.09.20.Cierra.Ma...
ALSScan.18.09.19.Paige.Owens...
AuntJudys.18.09.17.Helen.Vol...
Alone.In.Her.Room.2.XXX.1080...
ATKHairy.18.09.14.Alice.Merc...
BangBros18.18.09.18.Ana.Rose...
Bang.RealMILFs.18.09.18.Jasm...
Anilos.18.09.18.Tracey.Hein....
Bang.RealTeens.18.09.17.Jess...

3D
Sharknado.6.The.Last.One.3D....
Solo.A.Star.Wars.Story.3D.20...
Solo.A.Star.Wars.Story.3D.20...
Die.Biene.Maja.2.Die.Honigsp...
Avengers.Infinity.War.3D.201...
Avengers.Infinity.War.3D.201...
Rampage.Big.Meets.Bigger.3D....
Rampage.Big.Meets.Bigger.3D....
Rampage.Big.Meets.Bigger.3D....
Winter.Games.3D.2013.DUAL.CO...
Tomb.Raider.3D.2018.German.7...
Rampage.Big.Meets.Bigger.3D....
Rampage.Big.Meets.Bigger.3D....
Tomb.Raider.3D.2018.MULTi.CO...
Pacific.Rim.Uprising.3D.2018...

Old_Stuff
Schimanski.-.Duisburg.Ruhror...
Akte.X.S02.German.DTS.DL.108...
How.I.Met.Your.Mother.S02.Ge...
Akte.X.S01.German.DTS.DL.108...
Den.Himmel.gibts.echt.DL.108...
Vikings.S02.German.DL.1080p....
Be.Kind.Rewind.Abgedreht.200...
Be.Kind.Rewind.Abgedreht.200...
Dracula.The.Dark.Lord.2012.G...
21.2008.German.DL.1080p.BluR...
Achtung.fertig.WK.Swissgerma...
The.Ouija.Exorcism.2015.MULT...
Meine.liebe.Rabenmutter.germ...
Da.Vincis.Demons.S01.Complet...
Eragon.Das.Vermaechtnis.der....

Filme
The.Originals.S05.GERMAN.DUB...
The.Boneyard.1991.German.DL....
Mr.Mercedes.S02.German.DD+51...
Mr.Mercedes.S02.German.DD+51...
The.Handmaids.Tale.S02.Germa...
The.Handmaids.Tale.S02.Germa...
Die.durch.die.Hoelle.gehen.1...
Oceans.8.German.DL.AC3.Dubbe...
Oceans.8.German.DL.AC3.Dubbe...
Neun.Monate.1995.German.720p...
Red.Nights.2009.German.1080p...
Pinup.Dolls.on.Ice.Uncut.201...
Die.Zwangsjacke.1964.German....
Der.Club.der.Teufelinnen.199...
Dont.Move.Halt.still.2017.Ge...
Dope.COMPLETE.German.DD51.ML...
Oceans.8.2018.German.AC3.216...
Wild.at.Heart.1990.German.AC...
Wild.at.Heart.1990.German.AC...
Die.Stiefbrueder.2008.German...
Blacula.1972.German.AC3D.DL....
Solo.A.Star.Wars.Story.2018....
Belvedere.raeumt.auf.1948.Ge...
Solo.A.Star.Wars.Story.2018....

 
 
The.Originals.S05.GERMAN.DUBBED.DL.720p.WEB.x264-THTV

Jahr: 2018
Genre: Drama | Fantasy | Horror
Sprache: Deutsch AC3 | Englisch AC3
Laufzeit: 40min je Folge
Bitrate: 3400 Kbps
Format: MKV
Größe: 1,2 GB je Folge
Release:

Beschreibung:

In „The Originals“ ist ein Spin-off der Serie „The Vampire Diaries“ in der die drei mächtigen Mikaleson-Geschwister Klaus (Joseph Morgan), Elijah (Daniel Gillies) und Rebekah (Claire Holt) im Mittelpunkt stehen. Die Mikaelsons waren die ersten Vampire und heißen deshalb Originals. Nachdem sie ihr Unwesen in Mystic Falls getrieben haben, wird die Handlung nach New Orleans verlagert, eine Stadt, die Klaus seinerzeit offenbar mitgegründet hat. Dort trifft der Hybrid auf jemanden aus seiner Vergangenheit: seinem ehemaligen Protegé Marcel Charles Michael Davis, der das ungekrönte Oberhaupt der übernatürlichen Kreaturen von New Orleans ist.

 

enthaltene Folgen:

The.Originals.S05E01.Wo.dein.Herz.zu.Hause.ist.GERMAN.DUBBED.DL.720p.WEB.x264-THTV NEU



General
Complete name                            : The.Originals.S05E01.Wo.dein.Herz.zu.Hause.ist.GERMAN.DUBBED.DL.720p.WEB.x264-THTV\the.originals.s05e01.720p-thtv.mkv
Format                                   : Matroska
Format version                           : Version 4 / Version 2
File size                                : 1.16 GiB
Duration                                 : 40mn 34s
Overall bit rate                         : 4 077 Kbps
Encoded date                             : UTC 2018-09-23 21:52:40
Writing application                      : mkvmerge v14.0.0 ('Flow') 64bit
Writing library                          : libebml v1.3.4 + libmatroska v1.4.5
DURATION                                 : 00:40:34.688000000
NUMBER_OF_FRAMES                         : 76084
NUMBER_OF_BYTES                          : 116865024
_STATISTICS_WRITING_APP                  : mkvmerge v14.0.0 ('Flow') 64bit
_STATISTICS_WRITING_DATE_UTC             : 2018-09-23 21:52:40
_STATISTICS_TAGS                         : BPS DURATION NUMBER_OF_FRAMES NUMBER_OF_BYTES

Video
ID                                       : 1
Format                                   : AVC
Format/Info                              : Advanced Video Codec
Format profile                           : High@L3.1
Format settings, CABAC                   : Yes
Format settings, ReFrames                : 4 frames
Codec ID                                 : V_MPEG4/ISO/AVC
Duration                                 : 40mn 34s
Bit rate                                 : 3 400 Kbps
Width                                    : 1 280 pixels
Height                                   : 720 pixels
Display aspect ratio                     : 16:9
Frame rate mode                          : Constant
Frame rate                               : 25.000 fps
Color space                              : YUV
Chroma subsampling                       : 4:2:0
Bit depth                                : 8 bits
Scan type                                : Progressive
Bits/(Pixel*Frame)                       : 0.148
Stream size                              : 993 MiB (84%)
Writing library                          : x264 core 142 r2453+5 39b409e
Encoding settings                        : cabac=1 / ref=3 / deblock=1:0:0 / analyse=0x3:0x113 / me=hex / subme=6 / psy=1 / psy_rd=1.00:0.00 / mixed_ref=0 / me_range=16 / chroma_me=1 / trellis=1 / 8x8dct=1 / cqm=0 / deadzone=21,11 / fast_pskip=1 / chroma_qp_offset=-2 / threads=6 / lookahead_threads=1 / sliced_threads=0 / nr=0 / decimate=1 / interlaced=0 / bluray_compat=0 / constrained_intra=0 / bframes=3 / b_pyramid=2 / b_adapt=1 / b_bias=0 / direct=1 / weightb=1 / open_gop=0 / weightp=2 / keyint=48 / keyint_min=4 / scenecut=0 / intra_refresh=0 / rc_lookahead=40 / rc=cbr / mbtree=1 / bitrate=3400 / ratetol=1.0 / qcomp=0.60 / qpmin=0 / qpmax=69 / qpstep=4 / vbv_maxrate=3400 / vbv_bufsize=17000 / nal_hrd=none / filler=0 / ip_ratio=1.40 / aq=1:1.00
Default                                  : Yes
Forced                                   : No

Audio #1
ID                                       : 2
Format                                   : AC-3
Format/Info                              : Audio Coding 3
Mode extension                           : CM (complete main)
Format settings, Endianness              : Big
Codec ID                                 : A_AC3
Duration                                 : 40mn 34s
Bit rate mode                            : Constant
Bit rate                                 : 192 Kbps
Channel(s)                               : 2 channels
Channel positions                        : Front: L R
Sampling rate                            : 48.0 KHz
Bit depth                                : 16 bits
Compression mode                         : Lossy
Stream size                              : 55.7 MiB (5%)
Language                                 : German
Default                                  : Yes
Forced                                   : No

Audio #2
ID                                       : 3
Format                                   : AC-3
Format/Info                              : Audio Coding 3
Mode extension                           : CM (complete main)
Format settings, Endianness              : Big
Codec ID                                 : A_AC3
Duration                                 : 40mn 34s
Bit rate mode                            : Constant
Bit rate                                 : 384 Kbps
Channel(s)                               : 2 channels
Channel positions                        : Front: L R
Sampling rate                            : 48.0 KHz
Bit depth                                : 16 bits
Compression mode                         : Lossy
Stream size                              : 111 MiB (9%)
Default                                  : No
Forced                                   : No



Download:
Share-Online.biz Share-Online.bizShare-Online.bizShare-Online.biz | Rapidgator.net Rapidgator.netRapidgator.netRapidgator.net
 

Kommentare