DNS SERVER AENDERNum der staatlichen Zensur zu umgehen. Sollten wir von eurem Provider geseprrt werden, nutzt den TOR BROWSER oder ändert euren DNS SERVER.

Filmwünsche können bei uns im Forum abgegeben werden

Wir Speichern Nicht




 
 
 
Top Releases
Deadpool.2.Super.Duper.Cut.2...
David.Brent.Life.on.the.Road...
David.Brent.Life.on.the.Road...
Amanda.Knox.2016.German.DL.D...
Amanda.Knox.2016.German.DL.D...
22.Bullets.2010.German.DL.10...
Unsere.Erde.2.Earth.One.Amaz...
Avengers.Infinity.War.2018.M...
El.Autor.2017.German.1080p.W...
El.Autor.2017.German.720p.WE...

Cinedubs
The.Equalizer.2.TS.LD.German...
Der.Hauptmann.2017.German.AA...
Der.Hauptmann.2017.German.AA...
Ghost.Stories.2017.German.AC...
Ghost.Stories.2017.German.AC...
Oceans.8.German.DL.AC3.Dubbe...
Oceans.8.German.DL.AC3.Dubbe...
Hereditary.Das.Vermaechtnis....
Hereditary.Das.Vermaechtnis....
Oceans.8.2018.German.DL.AC3D...

Neuerscheinungen 2017-18
Vater.des.Jahres.2018.German...
The.End.2017.GERMAN.720p.Blu...
Derren.Brown.The.Push.2018.G...
Derren.Brown.The.Push.2018.G...
Das.Vermaechtnis.des.Weisswe...
Das.Vermaechtnis.des.Weisswe...
Barry.2016.German.DL.720p.WE...
Barry.2016.German.DL.1080p.W...
Godzilla.Eine.Stadt.am.Rande...
Godzilla.Eine.Stadt.am.Rande...

XXX
LaCochonne.18.08.21.Clementi...
KarupsPC.18.08.20.Tarra.And....
MilfsLikeItBig.18.08.21.Nina...
NewSensations.18.08.17.Abell...
Nubiles.18.08.21.Eva.Kays.Wa...
Nubiles.18.08.17.Eva.Kays.Pl...
MetArtX.18.08.21.Sabrisse.A....
ManuelFerrara.18.08.20.Lena....
OldYoungLesbianLove.18.08.20...
MilfHunter.18.08.20.Lela.Sta...
OnlyBlowJob.18.08.16.Silvia....
Nubiles.18.08.20.Eliza.Ibarr...
KinkyFamily.18.08.11.Ana.Ros...
MilfsLikeItBig.18.08.20.Chan...
MetArt.18.08.21.Jennifer.Lov...
Nubiles.18.08.16.Eliza.Ibarr...
MomsBangTeens.18.08.21.Lexi....
Nubiles.18.08.21.Maria.Rubio...
No.Not.My.Wrinkled.Starfish....
NFBusty.18.08.17.Nikki.Delan...

3D
Avengers.Infinity.War.3D.201...
Rampage.Big.Meets.Bigger.3D....
Rampage.Big.Meets.Bigger.3D....
Rampage.Big.Meets.Bigger.3D....
Winter.Games.3D.2013.DUAL.CO...
Tomb.Raider.3D.2018.German.7...
Rampage.Big.Meets.Bigger.3D....
Rampage.Big.Meets.Bigger.3D....
Tomb.Raider.3D.2018.MULTi.CO...
Pacific.Rim.Uprising.3D.2018...
Ready.Player.One.3D.2018.Ger...
Rampage.-.Big.Meets.Bigger.2...
Ready.Player.One.2018.3D.HOU...
Ready.Player.One.2018.3D.HSB...
Ready.Player.One.3D.2018.MUL...

Old_Stuff
Meine.liebe.Rabenmutter.germ...
Da.Vincis.Demons.S01.Complet...
Eragon.Das.Vermaechtnis.der....
Adele.und.das.Geheimnis.des....
Die.fabelhafte.Welt.der.Amel...
Haus.des.Geldes.S01.German.M...
How.I.Met.Your.Mother.S01.Ge...
The.Dark.Knight.Rises.2012.M...
Weissensee.S03.2015.GERMAN.C...
Weissensee.S01+S02.2010.GERM...
Die.Unglaublichen.-.The.Incr...
Der.grosse.Trick.1978.German...
Sully.2016.MULTi.COMPLETE.BL...
Tremors.3.Die.neue.Brut.2001...
Die.Indianer.von.Cleveland.2...

Filme
Warrior.2011.German.DL.DTSD....
Ein.Zwilling.kommt.selten.al...
Ein.Zwilling.kommt.selten.al...
Dream.Cruise.Albtraum.aus.de...
Flodder.Eine.Familie.zum.Knu...
Buck.Rogers.1979.German.DL.A...
Buck.Rogers.1979.German.DL.A...
A.Thought.of.Ecstasy.2017.Ge...
Flicka.1943.German.AC3D.DL.1...
Meine.teuflischen.Nachbarn.1...
Flodder.Forever.Eine.Familie...
Endstation.Horror.UNCUT.1972...
Der.alte.Mann.und.das.Kind.1...
Motel.Massaker.1986.German.A...
Lucifer.S03.COMPLETE.German....
Succession.S01.German.DD51.S...
Succession.S01.German.DD51.S...
Preacher.S03.COMPLETE.German...
Preacher.S03.COMPLETE.German...
Lucifer.S03.COMPLETE.German....
How.to.Party.with.Mom.2018.G...
Agenten.sterben.einsam.aka.W...
The.Mother.of.Tears.UNCUT.20...
Seine.Frau.hilft.Geld.verdie...

 
 
Cruel.Summer.2016.German.DL.1080p.BluRay.AVC-ARMO

Jahr: 2016
Genre: Drama, Horror, Thriller
Sprache: Deutsch DTS-HD | Englisch DTS-HD
Laufzeit: 1h 20mn
Bitrate: 25.2 Mbps
Format: MKV
Größe: 14.1 GiB
Release:

Beschreibung:

Der Teenager Danny (Richard Pawulski) bricht zu einem Campingausflug auf, um dem hektischen Leben in der Innenstadt zu entfliehen und etwas Zeit für sich alleine zu genießen. Eine Selbstverständlichkeit ist es allerdings nicht, dass Danny ohne Begleitung durch die Gegend wandert. Denn der junge Mann ist Autist und von daher nimmt er seine Umwelt ganz anders wahr als andere Menschen. In seiner Unbeschwertheit ahnt Danny jedoch nicht, dass er drei Verfolger hat, die üble Dinge mit ihm vorhaben: Julia (Natalie Martins) und Calvin (Reece Douglas) haben nämlich ein Gerücht über Danny in die Welt gesetzt, wonach dieser etwas mit der Exfreundin von Nicholas (Danny Miller) gehabt haben soll. Und der schäumt jetzt vor Wut und will Danny leiden lassen für die vermeintliche Tat. Bewaffnet stellt das Trio Danny nach und setzt so eine Spirale der Gewalt in Gang, an deren Ende es nur Verlierer geben kann…



Complete name                            : armo-cruelsummer-avc.mkv
Format                                   : Matroska
Format version                           : Version 4 / Version 2
File size                                : 14.1 GiB
Duration                                 : 1h 20mn
Overall bit rate mode                    : Variable
Overall bit rate                         : 25.2 Mbps
Encoded date                             : UTC 2017-11-22 15:37:08
Writing application                      : mkvmerge v17.0.0 ('Be Ur Friend') 64-bit
Writing library                          : libebml v1.3.5 + libmatroska v1.4.8
DURATION                                 : 01:20:00.043000000
NUMBER_OF_FRAMES                         : 450004
NUMBER_OF_BYTES                          : 1227610912
_STATISTICS_WRITING_APP                  : mkvmerge v17.0.0 ('Be Ur Friend') 64-bit
_STATISTICS_WRITING_DATE_UTC             : 2017-11-22 15:37:08
_STATISTICS_TAGS                         : BPS DURATION NUMBER_OF_FRAMES NUMBER_OF_BYTES

Video
ID                                       : 1
Format                                   : AVC
Format/Info                              : Advanced Video Codec
Format profile                           : High@L4.1
Format settings, CABAC                   : Yes
Format settings, ReFrames                : 4 frames
Codec ID                                 : V_MPEG4/ISO/AVC
Duration                                 : 1h 20mn
Bit rate mode                            : Variable
Bit rate                                 : 20.6 Mbps
Maximum bit rate                         : 30.0 Mbps
Width                                    : 1 920 pixels
Height                                   : 1 080 pixels
Display aspect ratio                     : 16:9
Frame rate mode                          : Constant
Frame rate                               : 24.000 fps
Standard                                 : NTSC
Color space                              : YUV
Chroma subsampling                       : 4:2:0
Bit depth                                : 8 bits
Scan type                                : Progressive
Bits/(Pixel*Frame)                       : 0.413
Stream size                              : 11.5 GiB (82%)
Default                                  : Yes
Forced                                   : No
Color primaries                          : BT.709
Transfer characteristics                 : BT.709
Matrix coefficients                      : BT.709

Audio #1
ID                                       : 2
Format                                   : DTS
Format/Info                              : Digital Theater Systems
Format profile                           : HRA / Core
Mode                                     : 16
Format settings, Endianness              : Big
Codec ID                                 : A_DTS
Duration                                 : 1h 20mn
Bit rate mode                            : Constant
Bit rate                                 : 2 046 Kbps / 1 509 Kbps
Channel(s)                               : 6 channels
Channel positions                        : Front: L C R, Side: L R, LFE
Sampling rate                            : 48.0 KHz
Bit depth                                : 16 bits
Compression mode                         : Lossy
Stream size                              : 1.14 GiB (8%)
Language                                 : German
Default                                  : Yes
Forced                                   : No

Audio #2
ID                                       : 3
Format                                   : DTS
Format/Info                              : Digital Theater Systems
Format profile                           : HRA / Core
Mode                                     : 16
Format settings, Endianness              : Big
Codec ID                                 : A_DTS
Duration                                 : 1h 20mn
Bit rate mode                            : Constant
Bit rate                                 : 2 046 Kbps / 1 509 Kbps
Channel(s)                               : 6 channels
Channel positions                        : Front: L C R, Side: L R, LFE
Sampling rate                            : 48.0 KHz
Bit depth                                : 16 bits
Compression mode                         : Lossy
Stream size                              : 1.14 GiB (8%)
Language                                 : English
Default                                  : No
Forced                                   : No


Download:
Share Online Share OnlineShare OnlineShare Online
 

Kommentare